(navigation image)
Home Audio Books & Poetry | Community Audio | Computers & Technology | Grateful Dead | Live Music Archive | Music, Arts & Culture | Netlabels | News & Public Affairs | Non-English Audio | Podcasts | Radio Programs | Spirituality & Religion | The Shady Trees | BRYAC Funk Allstars
Search: Advanced Search
Anonymous User (login or join us)
Upload

Listen to audio

item image

Stream (help[help])

VBR M3U
MP3 via M3U

Play / Download (help[help])

VBR ZIP

Ogg Vorbis

Lossless zip


All Files: HTTPS Torrent (2/0)

Resources

Bookmark

Kung FuKung Fu Live at The Palladium on 2012-12-28 (December 28, 2012)

something has gone horribly wrong 8-p
Prefer flash? · Embed · Questions/Feedback?


Collection: KungFuband
Band/Artist: Kung Fu
Date: December 28, 2012 (check for other copies)
Venue: The Palladium
Location: Worcester, MA

Source: Schoeps MK41/MK22>KC5>CMC6>Sonosax SX-R4(24bit/96khz)
Lineage: WAV>USB>Macbook Pro>Audacity(mixing)>Wave Editor(tracking,fades,resample(izotope)/dither(mbit+)to 16 bit/44.1k)>XAct(FLAC 8,ffp,fix sbe)
Taped by: Andy Murray
Transferred by: Andy Murray


Notes

Kung Fu
2012-12-28
The Palladium
Worcester, MA

Recorded and transferred by Andy Murray

Mics were right of center next to soundboard cage

Source 1: Schoeps MK41>KC5>CMC6>Sonosax SX-R4(24bit/96khz) DIN

Source 2: Schoeps MK22>KC5>CMC6>Sonosax SX-R4(24bit/96khz)
(21cm,110 degrees)

WAV>USB>Macbook Pro>Audacity(mixing)>Wave Editor(tracking,fades,resample(izotope)/dither(mbit+)to 16 bit/44.1k)>XAct(FLAC 8,ffp,fix sbe)

Thanks to Brian Vaz for the clamp space

Kung Fu opened for moe.

1 Set

length expanded size cdr WAVE problems fmt ratio filename
0:51.29 9064652 B --- -- ----- wav 1.0000 kungfu2012-12-28_mk41mk22mix_1644_d1t01.wav
7:30.10 79403564 B --- -- ----- wav 1.0000 kungfu2012-12-28_mk41mk22mix_1644_d1t02.wav
9:49.74 104073692 B --- -- ----- wav 1.0000 kungfu2012-12-28_mk41mk22mix_1644_d1t03.wav
9:16.02 98083148 B --- -- ----- wav 1.0000 kungfu2012-12-28_mk41mk22mix_1644_d1t04.wav
6:45.61 71585516 B --- -- ----- wav 1.0000 kungfu2012-12-28_mk41mk22mix_1644_d1t05.wav
7:19.40 77533724 B --- -- ----- wav 1.0000 kungfu2012-12-28_mk41mk22mix_1644_d1t06.wav
7:30.58 79516460 B --- -- ----- wav 1.0000 kungfu2012-12-28_mk41mk22mix_1644_d1t07.wav
10:32.12 111513068 B --- -- ----- wav 1.0000 kungfu2012-12-28_mk41mk22mix_1644_d1t08.wav
59:35.61 630773824 B 1.0000 (8 files)

Individual Files

Audio Files Flac VBR MP3 Ogg Vorbis
d1t01 3.0 MB
1.1 MB
556.4 KB
d1t02 39.4 MB
10.1 MB
5.1 MB
d1t03 48.9 MB
13.2 MB
6.5 MB
d1t04 50.1 MB
12.4 MB
6.2 MB
d1t05 36.1 MB
9.1 MB
4.6 MB
d1t06 32.7 MB
9.5 MB
4.7 MB
d1t07 38.4 MB
9.8 MB
4.9 MB
d1t08 54.2 MB
14.2 MB
7.0 MB
Information FormatSize
kungfu2012-12-28.schoeps_mk41mk22mix_16bit.ffp Flac FingerPrint 624.0 B
kungfu2012-12-28.schoeps_mk41mk22mix_16bit.md5 Checksums 632.0 B
kungfu2012-12-28.schoeps_mk41mk22mix_16bit_files.xml Metadata [file]
kungfu2012-12-28.schoeps_mk41mk22mix_16bit_meta.xml Metadata 3.1 KB
Other Files Archive BitTorrent Text
kungfu2012-12-28.schoeps_mk41mk22mix_16bit_archive.torrent 23.3 KB
kungfu2012-12-28_mk41mk22mix_1644_ffp.txt 696.0 B
kungfu2012-12-28_mk41mk22mix_1644_info.txt 2.2 KB

Be the first to write a review
Downloaded 72 times
Reviews